» » Jimmy Page & Robert Plant - No Quarter (1994) [Japan SHM-CD]
Rock Alternative Rock Grunge Metal RapCore Trip-Hop Hip-Hop House Electronic SynthPop Pop Pop-Rock Blues Folk Rhytm and Blues Lo-Fi

Jimmy Page & Robert Plant - No Quarter (1994) [Japan SHM-CD] скачать в формате flac

26 апреля 2017, Просмотров: 55
  Tеги: flac lossless rock metal

Аудио кодек: FLAC, APE
Битрейт аудио: lossless
Исполнитель: Jimmy Page & Robert Plant
Альбом: No Quarter
Студия: Fontana. Made in JP.
Каталог #: UICY-93586
Жанр: Rock
Год: 1994 (2008)
Формат: FLAC (image + .cue)
Битрейт: lossless
Упакован in archive
Количество композиций: 14
Size ZIP: ~ 543 mb
Загружен: nitroflare.com
Пароль к архиву: without a password









Tracklist / Треклист:
-----------------
01. Jimmy Page & Robert Plant - Nobody's Fault But Mine [4:06]
02. Jimmy Page & Robert Plant - Thank You [5:48]
03. Jimmy Page & Robert Plant - No Quarter [3:46]
04. Jimmy Page & Robert Plant - Friends [4:37]
05. Jimmy Page & Robert Plant - Yallah [4:59]
06. Jimmy Page & Robert Plant - City Don't Cry [6:09]
07. Jimmy Page & Robert Plant - Since I've Been Loving You [7:30]
08. Jimmy Page & Robert Plant - The Battle Of Evermore [6:41]
09. Jimmy Page & Robert Plant - Wonderful One [4:58]
10. Jimmy Page & Robert Plant - Wah Wah [3:59]
11. Jimmy Page & Robert Plant - That's The Way [5:35]
12. Jimmy Page & Robert Plant - Gallows Pole [4:09]
13. Jimmy Page & Robert Plant - Four Sticks [4:53]
14. Jimmy Page & Robert Plant - Kashmir [12:28]
--------------------------
Total time / Общее время [01:19:38]

Notes:
-----------------------
Recorded on location at Marrakech, Maroc; Snowdonia, Wales; London, Albion.

Credit must be given to Bron-Y-Aur, a small derelict cottage in South Snowdonia for painting a somewhat forgotten picture of true completeness which acted as an incentive to some of the musical statements.

SHM-CD


[spoiler=Log EAC] Exact Audio Copy V0.99 prebeta 4 from 23. January 2008

EAC extraction logfile from 10. December 2008, 20:56

Jimmy Page & Robert Plant / No Quarter

Used drive : _NEC DVD_RW ND-3520AW Adapter: 0 ID: 0

Read mode : Secure
Utilize accurate stream : Yes
Defeat audio cache : Yes
Make use of C2 pointers : No

Read offset correction : 48
Overread into Lead-In and Lead-Out : No
Fill up missing offset samples with silence : Yes
Delete leading and trailing silent blocks : No
Null samples used in CRC calculations : Yes
Used interface : Native Win32 interface for Win NT & 2000

Used output format : Internal WAV Routines
Sample format : 44.100 Hz; 16 Bit; Stereo


TOC of the extracted CD

Track | Start | Length | Start sector | End sector
---------------------------------------------------------
1 | 0:00.00 | 4:06.20 | 0 | 18469
2 | 4:06.20 | 5:48.07 | 18470 | 44576
3 | 9:54.27 | 3:45.45 | 44577 | 61496
4 | 13:39.72 | 4:36.73 | 61497 | 82269
5 | 18:16.70 | 4:59.35 | 82270 | 104729
6 | 23:16.30 | 6:08.47 | 104730 | 132376
7 | 29:25.02 | 7:30.18 | 132377 | 166144
8 | 36:55.20 | 6:41.05 | 166145 | 196224
9 | 43:36.25 | 4:57.42 | 196225 | 218541
10 | 48:33.67 | 3:59.28 | 218542 | 236494
11 | 52:33.20 | 5:35.25 | 236495 | 261644
12 | 58:08.45 | 4:09.07 | 261645 | 280326
13 | 62:17.52 | 4:52.48 | 280327 | 302274
14 | 67:10.25 | 12:27.45 | 302275 | 358344


Range status and errors

Selected range

Filename D:Music LosslessJimmy Page & Robert Plant - No Quarter (1994) [Japan 2008 Remaster SHM-CD UICY-93586]Jimmy Page & Robert Plant - No Quarter.wav

Peak level 100.0 %
Range quality 100.0 %
Test CRC F744427F
Copy CRC F744427F
Copy OK

No errors occurred


AccurateRip summary

Track 1 not present in database
Track 2 not present in database
Track 3 not present in database
Track 4 not present in database
Track 5 not present in database
Track 6 not present in database
Track 7 not present in database
Track 8 not present in database
Track 9 not present in database
Track 10 not present in database
Track 11 not present in database
Track 12 not present in database
Track 13 not present in database
Track 14 not present in database

None of the tracks are present in the AccurateRip database

End of status report[/spoiler][spoiler=Log Audiochecker] AUDIOCHECKER v2.0 beta (build 457) - by Dester - <script language='javascript' type='text/javascript'> <script language='javascript' type='text/javascript'> Этот e-mail адрес защищен от спам-ботов, для его просмотра у Вас должен быть включен javascript <script language='javascript' type='text/javascript'>
~~~~~~~~~~~~~~~~~~~~~~~~~~~~~~~~~~
-=== НЕ РЕДАКТИРУЙТЕ ЭТОТ ФАЙЛ! ===-

Путь: ...JimmyPage-RobertPlant-NoQuarter[JapanSHM-CD]1994HQ

01 -=- Jimmy Page & Robert Plant - No Quarter.flac -=- CDDA (100%)

--NitroFlare.com--
http://nitroflare.com/view/870058C30157D3A/JimmyPage-RobertPlant-NoQuarter_JapanSHM-CD_1994HQ.zip


Вы можете воспользоваться поиском торрент файлов, что бы скачать музыку Jimmy Page & Robert Plant - No Quarter (1994) [Japan SHM-CD] в формате Flac, Ape, Wavpack, WMA Lossless.

Если поиск не удался, то попробуйте изменить или сократить запрос.


Модуль предоставлен распостранителем лицензионного ПО "InstallMonster"

А так же советуем скачать:

Комментарии

Имя:*
E-Mail:
Введите код: *
Кликните на изображение чтобы обновить код, если он неразборчив


Поиск по сайту


расширенный
ОБЛАКО ТЕГОВ
Ambient Blues Blues Rock Chillout Classic Classical Dance darkness Disco Downtempo Easy Listening Electronic flac Gothic Gothic Metal Hard Rock heavy Heavy Metal Instrumental Jazz lossless Lounge melodic Melodic Death Melodic Death Metal Metal New Age Pop Pop Rock Power Metal Prog Rock Progressive Progressive Rock Retro Rock Symphonic thrash Thrash Metal universal Дискография
НОВОЕ НА САЙТЕ
Популярное на сайте
ПАРТНЕРЫ
» У вас музыкальный сайт?
Давайте меняться ссылками!
Связаться с нами
АРХИВ
Май 2017 (1490)
Апрель 2017 (1449)
Январь 2016 (10)
Декабрь 2015 (4)
Ноябрь 2015 (5)
Октябрь 2015 (11)

 
ВНИМАНИЕ: Владельцы и создатели данного сайта не несут никакой ответственность за использование ресурсов доступных на этом сайте.
Вся информация дана исключительно в ознакомительных целях. После ознакомления с материалами Вы обязаны их удалить! И при желании купить оригинальные записи.
Авторы не несут ответственности за возможные последствия использования материалов в целях, запрещенных УК разных стран.
Вы обязуетесь не применять полученные здесь музыкальные записи и информацию в целях, запрещённых УК.
FlacWorld.com
Связаться с нами